CHD高清論壇

 找回密碼
 立即注冊

QQ登錄

只需一步,快速開始

搜索
熱搜: 活動 交友 discuz
查看: 1703|回復: 97
打印 上一主題 下一主題

[劇情片] 鍋蓋頭4:回歸法制.Jarhead.Law.of.Return.2019.1080p.BluRay.x264-ROVERS

  [復制鏈接]
跳轉到指定樓層
樓主
發表于 5 天前 | 只看該作者 回帖獎勵 |倒序瀏覽 |閱讀模式
天下第一棋牌注冊送1111金幣


[size=13.3333px]◎譯  名 鍋蓋頭4:回歸法制
[size=13.3333px]◎片  名 Jarhead: Law of Return
[size=13.3333px]◎年  代 2019
[size=13.3333px]◎產  地 美國
[size=13.3333px]◎類  別 劇情 / 動作 / 戰爭
[size=13.3333px]◎語  言 英語
[size=13.3333px]◎上映日期 2019-10-01(美國)
[size=13.3333px]◎IMDb鏈接 http://www.imdb.com/title/tt10767720
[size=13.3333px]◎豆瓣評分 0/10 from 0 users
[size=13.3333px]◎豆瓣鏈接 https://movie.douban.com/subject/34785746/
[size=13.3333px]◎片  長 103分鐘
[size=13.3333px]◎導  演 唐·邁克爾·保羅 Don Michael Paul
[size=13.3333px]◎編  劇 唐·邁克爾·保羅 Don Michael Paul
[size=13.3333px]◎主  演 戴文·薩瓦 Devon Sawa
[size=13.3333px]      Yael Eitan
[size=13.3333px]      阿摩司·塔瑪姆 Amos Tamam
[size=13.3333px]      阿莫里·諾拉斯科 Amaury Nolasco
[size=13.3333px]      杰夫·皮埃爾 Jeff Pierre


[size=13.3333px]◎標  簽 極度傻逼片

[size=13.3333px]◎簡  介

[size=13.3333px]  Major Ronan Jackson (Devon Sawa), an accomplished fighter pilot for the Israel Defense Forces and son of a U.S. Senator (Robert Patrick), is shot down while flying through Syrian airspace. After miraculously surviving the crash, Jackson is taken captive by a group of Hezbollah militiamen. A gripping and powerful story packed with hard-hitting action, Jarhead: Law of Return follows a squad of Marines, led by Sergeant Dave Flores (Amaury Nolasco), as they risk their own lives in the hopes of saving an ally they've never met.
Video
ID : 1
Format : AVC
Format/Info : Advanced Video Codec
Format profile : [email protected]
Format settings : CABAC / 5 Ref Frames
Format settings, CABAC : Yes
Format settings, Reference frames : 5 frames
Codec ID : V_MPEG4/ISO/AVC
Duration : 1 h 42 min
Bit rate : 9 139 kb/s
Width : 1 920 pixels
Height : 816 pixels
Display aspect ratio : 2.35:1
Frame rate mode : Constant
Frame rate : 23.976 (24000/1001) FPS
Color space : YUV
Chroma subsampling : 4:2:0
Bit depth : 8 bits
Scan type : Progressive
Bits/(Pixel*Frame) : 0.243
Stream size : 6.56 GiB (86%)
Writing library : x264 core 158 r2984 3759fcb
Encoding settings : cabac=1 / ref=5 / deblock=1:-3:-3 / analyse=0x3:0x113 / me=umh / subme=8 / psy=1 / psy_rd=1.00:0.00 / mixed_ref=1 / me_range=16 / chroma_me=1 / trellis=1 / 8x8dct=1 / cqm=0 / deadzone=21,11 / fast_pskip=1 / chroma_qp_offset=-2 / threads=25 / lookahead_threads=4 / sliced_threads=0 / nr=0 / decimate=1 / interlaced=0 / bluray_compat=0 / constrained_intra=0 / bframes=3 / b_pyramid=2 / b_adapt=1 / b_bias=0 / direct=3 / weightb=1 / open_gop=0 / weightp=2 / keyint=250 / keyint_min=23 / scenecut=40 / intra_refresh=0 / rc_lookahead=50 / rc=2pass / mbtree=1 / bitrate=9139 / ratetol=1.0 / qcomp=0.60 / qpmin=0 / qpmax=69 / qpstep=4 / cplxblur=20.0 / qblur=0.5 / ip_ratio=1.40 / aq=1:1.00
Language : English
Default : Yes
Forced : No

Audio
ID : 2
Format : DTS
Format/Info : Digital Theater Systems
Codec ID : A_DTS
Duration : 1 h 42 min
Bit rate mode : Constant
Bit rate : 1 509 kb/s
Channel(s) : 6 channels
Channel layout : C L R Ls Rs LFE
Sampling rate : 48.0 kHz
Frame rate : 93.750 FPS (512 SPF)
Bit depth : 24 bits
Compression mode : Lossy
Stream size : 1.08 GiB (14%)
Language : English
Default : Yes
Forced : No

[size=13.3333px]


回復下載:





游客,如果您要查看本帖隱藏內容請回復


本帖子中包含更多資源

您需要 登錄 才可以下載或查看,沒有帳號?立即注冊

x
分享到:  QQ好友和群QQ好友和群 QQ空間QQ空間 騰訊微博騰訊微博 騰訊朋友騰訊朋友
收藏收藏
回復

使用道具 舉報

沙發
發表于 5 天前 | 只看該作者
感謝樓主分享





......
回復 支持 反對

使用道具 舉報

板凳
發表于 5 天前 | 只看該作者
感謝分享,辛苦了
回復 支持 反對

使用道具 舉報

地板
發表于 5 天前 | 只看該作者
感謝樓主分享
回復 支持 反對

使用道具 舉報

5#
發表于 5 天前 | 只看該作者
感謝樓主分享!
回復 支持 反對

使用道具 舉報

6#
發表于 5 天前 | 只看該作者
謝謝分享謝謝分享謝謝分享
回復 支持 反對

使用道具 舉報

7#
發表于 5 天前 | 只看該作者
感謝樓主分享
回復 支持 反對

使用道具 舉報

8#
發表于 5 天前 | 只看該作者
樓主辛苦了,多謝樓主分享。
回復 支持 反對

使用道具 舉報

9#
發表于 5 天前 | 只看該作者
愛上打掃打掃打掃大
回復 支持 反對

使用道具 舉報

您需要登錄后才可以回帖 登錄 | 立即注冊

本版積分規則

快速回復 返回頂部 返回列表
竞彩网首页