CHD高清論壇

 找回密碼
 立即注冊

QQ登錄

只需一步,快速開始

搜索
熱搜: 活動 交友 discuz
查看: 25|回復: 3
打印 上一主題 下一主題

[奇幻片] 神奇女俠:血脈.2019.2160p.BluRay.x264.8bit.SDR.DTS-HD.MA.5.1-SWTYBLZ

[復制鏈接]
跳轉到指定樓層
樓主
發表于 1 小時前 | 只看該作者 回帖獎勵 |倒序瀏覽 |閱讀模式
天下第一棋牌注冊送1111金幣


[size=13.3333px]◎譯  名 神奇女俠:血脈
[size=13.3333px]◎片  名 Wonder Woman: Bloodlines
[size=13.3333px]◎年  代 2019
[size=13.3333px]◎產  地 美國
[size=13.3333px]◎類  別 動畫 / 奇幻
[size=13.3333px]◎語  言 英語
[size=13.3333px]◎上映日期 2019-10-05(美國)
[size=13.3333px]◎IMDb評分 4.6/10 from 7 users
[size=13.3333px]◎IMDb鏈接 http://www.imdb.com/title/tt8752498
[size=13.3333px]◎豆瓣評分 0/10 from 0 users
[size=13.3333px]◎豆瓣鏈接 https://movie.douban.com/subject/30286098/
[size=13.3333px]◎片  長 83分鐘
[size=13.3333px]◎導  演 賈斯汀·科普蘭 Justin Copeland / 劉山姆 Sam Liu
[size=13.3333px]◎編  劇 威廉·馬斯頓 William M. Marston / 麥格里德·斯科特 Mairghread Scott
[size=13.3333px]◎主  演 羅莎里奧·道森 Rosario Dawson
[size=13.3333px]      瑪莉·艾格洛蒲露絲 Marie Avgeropoulos
[size=13.3333px]      艾德麗安·C·摩爾 Adrienne C. Moore
[size=13.3333px]      杰弗里·多諾萬 Jeffrey Donovan
[size=13.3333px]      克里·薩莫 Cree Summer
[size=13.3333px]      邁克爾·多恩 Michael Dorn
[size=13.3333px]      康斯坦斯·齊默 Constance Zimmer
[size=13.3333px]      莫贊·瑪諾 Mozhan Marnò
[size=13.3333px]      妮婭·瓦達拉斯 Nia Vardalos
[size=13.3333px]      柯特奈·泰勒 Courtenay Taylor
[size=13.3333px]      雷·蔡斯 Ray Chase
[size=13.3333px]      Kimberly Brooks


[size=13.3333px]◎標  簽 DC | 動畫 | 神奇女俠 | 2019 | 美國 | DC動漫 | 漫改 | DCAMU

[size=13.3333px]◎簡  介

[size=13.3333px]  該部電影是2009年以來的第二部“神奇女俠”動畫電影,電影主要講述神奇女俠神奇女俠要從致命犯罪的組織幫助一名深陷麻煩的女孩,而這個組織的目標是入侵神奇女俠的家鄉天堂島。
[size=13.3333px]  羅莎里奧·道森將繼續為神奇女俠配音,本片將有銀天鵝、豹女、毒藥博士和巨化女等神奇女俠經典反派登場。
Video
ID : 1
Format : AVC
Format/Info : Advanced Video Codec
Format profile : [email protected]
Format settings : CABAC / 5 Ref Frames
Format settings, CABAC : Yes
Format settings, Reference frames : 5 frames
Codec ID : V_MPEG4/ISO/AVC
Duration : 1 h 22 min
Bit rate : 9 866 kb/s
Width : 3 840 pixels
Height : 2 160 pixels
Display aspect ratio : 16:9
Frame rate mode : Constant
Frame rate : 23.976 (24000/1001) FPS
Color space : YUV
Chroma subsampling : 4:2:0
Bit depth : 8 bits
Scan type : Progressive
Bits/(Pixel*Frame) : 0.050
Stream size : 5.71 GiB (77%)
Title : Wonder.Woman.Bloodlines.2019.2160p.BluRay.x264.8bit.SDR.DTS-HD.MA.5.1-SWTYBLZ
Writing library : x264 core 157 r2935 545de2f
Encoding settings : cabac=1 / ref=5 / deblock=1:1:1 / analyse=0x3:0x113 / me=umh / subme=10 / psy=1 / psy_rd=0.40:0.00 / mixed_ref=1 / me_range=48 / chroma_me=1 / trellis=2 / 8x8dct=1 / cqm=0 / deadzone=21,11 / fast_pskip=1 / chroma_qp_offset=-2 / threads=67 / lookahead_threads=7 / sliced_threads=0 / nr=0 / decimate=0 / interlaced=0 / bluray_compat=0 / constrained_intra=0 / bframes=5 / b_pyramid=2 / b_adapt=2 / b_bias=0 / direct=3 / weightb=1 / open_gop=0 / weightp=2 / keyint=250 / keyint_min=23 / scenecut=40 / intra_refresh=0 / rc_lookahead=50 / rc=crf / mbtree=1 / crf=14.0 / qcomp=0.60 / qpmin=0 / qpmax=69 / qpstep=4 / ip_ratio=1.40 / aq=1:0.60
Language : English
Default : Yes
Forced : No

Audio #1
ID : 2
Format : DTS XLL
Format/Info : Digital Theater Systems
Commercial name : DTS-HD Master Audio
Codec ID : A_DTS
Duration : 1 h 22 min
Bit rate mode : Variable
Bit rate : 2 329 kb/s
Channel(s) : 6 channels
Channel layout : C L R Ls Rs LFE
Sampling rate : 48.0 kHz
Frame rate : 93.750 FPS (512 SPF)
Bit depth : 24 bits
Compression mode : Lossless
Stream size : 1.35 GiB (18%)
Title : Wonder.Woman.Bloodlines.2019.2160p.BluRay.x264.8bit.SDR.DTS-HD.MA.5.1-SWTYBLZ
Language : English
Default : Yes
Forced : No

Audio #2
ID : 3
Format : AC-3
Format/Info : Audio Coding 3
Commercial name : Dolby Digital
Codec ID : A_AC3
Duration : 1 h 22 min
Bit rate mode : Constant
Bit rate : 640 kb/s
Channel(s) : 6 channels
Channel layout : L R C LFE Ls Rs
Sampling rate : 48.0 kHz
Frame rate : 31.250 FPS (1536 SPF)
Bit depth : 16 bits
Compression mode : Lossy
Stream size : 379 MiB (5%)
Title : Wonder.Woman.Bloodlines.2019.2160p.BluRay.x264.8bit.SDR.DTS-HD.MA.5.1-SWTYBLZ
Language : English
Service kind : Complete Main
Default : No
Forced : No

Text #1
ID : 4
Format : UTF-8
Codec ID : S_TEXT/UTF8
Codec ID/Info : UTF-8 Plain Text
Duration : 1 h 19 min
Bit rate : 46 b/s
Count of elements : 958
Stream size : 27.2 KiB (0%)
Title : English-SRT
Language : English
Default : Yes
Forced : No

Text #2
ID : 5
Format : PGS
Muxing mode : zlib
Codec ID : S_HDMV/PGS
Codec ID/Info : Picture based subtitle format used on BDs/HD-DVDs
Duration : 1 h 19 min
Bit rate : 31.1 kb/s
Count of elements : 2326
Stream size : 17.8 MiB (0%)
Title : English-PGS
Language : English
Default : No
Forced : No

Text #3
ID : 6
Format : PGS
Muxing mode : zlib
Codec ID : S_HDMV/PGS
Codec ID/Info : Picture based subtitle format used on BDs/HD-DVDs
Duration : 1 h 21 min
Bit rate : 26.5 kb/s
Count of elements : 1944
Stream size : 15.5 MiB (0%)
Title : French-PGS
Language : French
Default : No
Forced : No

Text #4
ID : 7
Format : PGS
Muxing mode : zlib
Codec ID : S_HDMV/PGS
Codec ID/Info : Picture based subtitle format used on BDs/HD-DVDs
Duration : 1 h 21 min
Bit rate : 26.7 kb/s
Count of elements : 1948
Stream size : 15.6 MiB (0%)
Title : Spanish-PGS
Language : Spanish
Default : No
Forced : No

Menu
00:00:00.000 : en:Chapter 01
00:10:04.395 : en:Chapter 02
00:19:53.484 : en:Chapter 03
00:28:26.538 : en:Chapter 04
00:38:44.030 : en:Chapter 05
00:47:37.229 : en:Chapter 06
00:54:35.314 : en:Chapter 07
01:03:48.158 : en:Chapter 08
01:12:13.287 : en:Chapter 09
01:17:54.837 : en:Chapter 10

[size=13.3333px][size=13.3333px][size=13.3333px][size=13.3333px][size=13.3333px][size=13.3333px][size=13.3333px]




回復下載:





游客,如果您要查看本帖隱藏內容請回復


本帖子中包含更多資源

您需要 登錄 才可以下載或查看,沒有帳號?立即注冊

x
分享到:  QQ好友和群QQ好友和群 QQ空間QQ空間 騰訊微博騰訊微博 騰訊朋友騰訊朋友
收藏收藏
回復

使用道具 舉報

推薦
發表于 半小時前 | 只看該作者
回復 支持 1 反對 0

使用道具 舉報

沙發
發表于 半小時前 | 只看該作者
渴望看到,謝謝樓主分享
回復 支持 反對

使用道具 舉報

板凳
發表于 半小時前 | 只看該作者
感謝樓主分享:):):):):):):):):):):):):):)





......
回復 支持 反對

使用道具 舉報

您需要登錄后才可以回帖 登錄 | 立即注冊

本版積分規則

快速回復 返回頂部 返回列表
竞彩网首页